<?xml version="1.0" standalone="no"?>
<!DOCTYPE svg PUBLIC "-//W3C//DTD SVG 1.1//EN" "http://www.w3.org/Graphics/SVG/1.1/DTD/svg11.dtd" >
<svg xmlns="http://www.w3.org/2000/svg" xmlns:xlink="http://www.w3.org/1999/xlink" version="1.1">
<metadata></metadata>
<defs>
<font id="maison_neuebold" horiz-adv-x="1107" >
<font-face units-per-em="2048" ascent="1587" descent="-461" />
<missing-glyph horiz-adv-x="512" />
<glyph unicode="&#xfb01;" horiz-adv-x="1265" d="M31 860v225h176v154q0 139 72.5 197.5t212.5 58.5h172v-235h-117q-49 0 -68.5 -19.5t-19.5 -66.5v-89h663v-1085h-266v860h-389v-860h-266v860h-170zM856 1243v252h266v-252h-266z" />
<glyph unicode="&#xfb02;" horiz-adv-x="1273" d="M31 860v225h174v154q0 139 72.5 197.5t211.5 58.5h173v-235h-117q-49 0 -68.5 -19.5t-19.5 -66.5v-89h397v410h276v-1495h-276v860h-389v-860h-266v860h-168z" />
<glyph horiz-adv-x="0" />
<glyph horiz-adv-x="0" />
<glyph horiz-adv-x="682" />
<glyph unicode="&#xd;" horiz-adv-x="681" />
<glyph unicode=" "  horiz-adv-x="512" />
<glyph unicode="&#x09;" horiz-adv-x="512" />
<glyph unicode="&#xa0;" horiz-adv-x="512" />
<glyph unicode="!" horiz-adv-x="673" d="M184 0v291h305v-291h-305zM197 473v961h276v-961h-276z" />
<glyph unicode="&#x22;" horiz-adv-x="800" d="M164 930v504h174v-504h-174zM463 930v504h174v-504h-174z" />
<glyph unicode="#" horiz-adv-x="1388" d="M123 524v181h270l17 284h-215v180h227l16 265h191l-17 -265h195l16 265h193l-17 -265h267v-180h-279l-16 -284h221v-181h-234l-14 -264h-192l14 264h-195l-14 -264h-192l14 264h-256zM584 705h194l17 284h-195z" />
<glyph unicode="$" horiz-adv-x="1345" d="M92 479l291 64q25 -141 78 -216t160 -94v402q-256 76 -362.5 178t-106.5 244q0 160 125.5 276.5t343.5 128.5v125h112v-127q184 -14 312.5 -109.5t171.5 -271.5l-259 -75q-66 178 -225 198v-340q297 -90 408.5 -193.5t111.5 -258.5q0 -195 -139 -314t-381 -127v-170h-112 v174q-221 20 -359.5 148.5t-169.5 357.5zM424 1061q0 -57 43 -92t154 -70v307q-102 -4 -149.5 -45t-47.5 -100zM733 225q119 0 184.5 44t65.5 130q0 74 -51.5 116t-198.5 87v-377z" />
<glyph unicode="%" horiz-adv-x="1898" d="M123 1057q0 193 100.5 297t237.5 104t238.5 -105.5t101.5 -295.5q0 -195 -99.5 -311.5t-240.5 -116.5q-145 0 -241.5 105.5t-96.5 322.5zM317 1053q0 -111 37 -175.5t106.5 -64.5t107.5 64.5t38 175.5q0 217 -145 217q-143 0 -144 -217zM381 -70l1001 1669l148 -92 l-1000 -1667zM1098 403q0 193 100 297.5t237.5 104.5t239 -105.5t101.5 -296.5q0 -195 -99.5 -311.5t-240.5 -116.5q-145 0 -241.5 105.5t-96.5 322.5zM1292 399q0 -111 37 -175t106.5 -64t107.5 64.5t38 174.5q0 217 -145 217q-143 0 -144 -217z" />
<glyph unicode="&#x26;" horiz-adv-x="1437" d="M102 389q0 160 84 270.5t187 169.5q-137 123 -137 285q0 160 117.5 255t279.5 95q174 0 292.5 -92t143.5 -268l-242 -53q-41 176 -184 176q-66 0 -102.5 -33t-36.5 -82q0 -41 21.5 -71.5t66.5 -69.5l338 -289h4v170h221v-365l262 -225l-164 -194l-178 155 q-127 -254 -481 -254q-227 0 -359.5 117t-132.5 303zM358 426q0 -207 260 -207q234 0 271 168l-354 307q-70 -35 -123.5 -106.5t-53.5 -161.5z" />
<glyph unicode="'" horiz-adv-x="501" d="M164 930v504h174v-504h-174z" />
<glyph unicode="(" horiz-adv-x="765" d="M143 643q0 158 38 310.5t87 255t116 198.5t101.5 134t65.5 69l133 -111q-166 -203 -246 -388t-80 -468q0 -272 91.5 -515t234.5 -421l-133 -110q-35 33 -90 110.5t-133 212.5t-131.5 329.5t-53.5 393.5z" />
<glyph unicode=")" horiz-adv-x="765" d="M82 -293q143 178 234.5 421t91.5 515q0 283 -80 468t-246 388l133 111q31 -31 65.5 -69t101.5 -134t116 -198.5t87 -255t38 -310.5q0 -199 -53.5 -393.5t-131.5 -329.5t-133 -212.5t-90 -110.5z" />
<glyph unicode="*" horiz-adv-x="1021" d="M102 1124l103 174l205 -120v256h200v-258l211 124l99 -178l-234 -133l182 -211l-151 -127l-209 240l-201 -242l-149 129l176 213z" />
<glyph unicode="+" horiz-adv-x="1193" d="M82 641v205h407v414h216v-414h407v-205h-407v-457h-216v457h-407z" />
<glyph unicode="," horiz-adv-x="632" d="M164 0v291h305v-258q0 -284 -305 -307v139q68 12 84 38.5t16 96.5h-100z" />
<glyph unicode="-" horiz-adv-x="837" d="M82 569v205h674v-205h-674z" />
<glyph unicode="." horiz-adv-x="632" d="M164 0v291h305v-291h-305z" />
<glyph unicode="/" horiz-adv-x="923" d="M10 -25l738 1557l165 -76l-737 -1552z" />
<glyph unicode="0" horiz-adv-x="1245" d="M72 739q0 356 150.5 540.5t400 184.5t400.5 -184t151 -541q0 -393 -150 -581.5t-401.5 -188.5t-401 188.5t-149.5 581.5zM348 739q0 -285 66.5 -399.5t208 -114.5t208 115t66.5 399q0 248 -68.5 358.5t-206 110.5t-206 -110.5t-68.5 -358.5z" />
<glyph unicode="1" horiz-adv-x="972" d="M113 932v297l329 205h244v-1434h-264v1126z" />
<glyph unicode="2" horiz-adv-x="1204" d="M92 975q14 236 152.5 362.5t376.5 126.5q209 0 345 -119.5t136 -328.5q0 -88 -31 -161t-89 -129t-116.5 -94t-140.5 -79q-158 -80 -210 -110.5t-77 -65.5q-29 -43 -28 -107h702v-270h-1008v207q0 197 95 307q78 92 323 215q14 6 41 21q82 39 118 60t81 56t61.5 75 t16.5 93q0 80 -63.5 132.5t-170.5 52.5q-223 0 -252 -279z" />
<glyph unicode="3" horiz-adv-x="1214" d="M61 469l269 57q41 -311 288 -311q121 0 188.5 55.5t67.5 155.5q0 211 -268 211h-94v217h84q96 0 154.5 45t58.5 131q0 88 -54.5 138.5t-150.5 50.5q-186 0 -219 -218l-252 48q18 193 148.5 304t332.5 111q195 0 323 -107.5t128 -287.5q0 -129 -59.5 -198.5t-124.5 -90.5 v-6q86 -18 169 -109.5t83 -256.5q0 -188 -135.5 -313.5t-376.5 -125.5q-233 0 -382 126t-178 374z" />
<glyph unicode="4" horiz-adv-x="1214" d="M41 274v258l545 902h420v-904h168v-256h-168v-274h-261v274h-704zM319 530h426v701h-4z" />
<glyph unicode="5" horiz-adv-x="1226" d="M82 356l260 111q33 -113 107.5 -179.5t181.5 -66.5q117 0 193.5 67.5t76.5 196.5t-75.5 197t-188.5 68q-184 0 -287 -154l-215 109l125 729h766v-256h-557l-55 -324l2 -2q10 16 38.5 37.5t98.5 45t154 23.5q193 0 325.5 -135t132.5 -346q0 -238 -153.5 -373t-380.5 -135 q-213 0 -350.5 106.5t-198.5 280.5z" />
<glyph unicode="6" horiz-adv-x="1277" d="M92 702q0 319 161 540.5t433 221.5q199 0 313.5 -105.5t147.5 -264.5l-250 -66q-51 190 -229 191q-129 0 -209 -118t-86 -313l2 -2q37 59 127 112.5t223 53.5q188 0 329.5 -127t141.5 -352q0 -231 -146.5 -367.5t-359.5 -136.5q-264 0 -431 187.5t-167 545.5zM418 485 q0 -125 72.5 -194.5t199.5 -69.5q119 0 184.5 74t65.5 188q0 113 -68.5 184.5t-191.5 71.5q-121 0 -191.5 -76t-70.5 -178z" />
<glyph unicode="7" horiz-adv-x="1024" d="M10 1178v256h973v-287l-629 -1147h-327l682 1174v4h-699z" />
<glyph unicode="8" horiz-adv-x="1179" d="M53 414q0 121 67.5 222t190.5 144v4q-90 37 -140 116t-50 181q0 164 129 273.5t340 109.5t340 -109.5t129 -273.5q0 -102 -50.5 -181t-140.5 -116v-4q125 -45 191.5 -145t66.5 -225q0 -209 -146 -325t-390 -116t-390.5 117t-146.5 328zM324 438q0 -96 68.5 -156.5 t197.5 -60.5t196.5 60.5t67.5 156.5q0 102 -69.5 168t-194.5 66t-195.5 -66t-70.5 -168zM381 1059q0 -72 57.5 -123t151.5 -51t150.5 51t56.5 123q0 74 -54.5 125t-152.5 51q-100 0 -154.5 -51t-54.5 -125z" />
<glyph unicode="9" horiz-adv-x="1253" d="M72 965q0 227 147.5 363t362.5 136q113 0 211 -42t181 -129t130 -237.5t47 -346.5q0 -369 -139.5 -554.5t-393.5 -185.5q-117 0 -209 32t-148 87t-89 112.5t-49 123.5l244 90q53 -199 262 -199q125 0 197.5 103.5t64.5 316.5h-4q-14 -47 -101.5 -102.5t-236.5 -55.5 q-184 0 -330.5 133t-146.5 355zM334 964.5q0 -110.5 69.5 -180t188.5 -69.5q117 0 185.5 59.5t68.5 171.5q0 121 -69.5 197t-192.5 76q-111 0 -180.5 -72t-69.5 -182.5z" />
<glyph unicode=":" horiz-adv-x="632" d="M164 0v291h305v-291h-305zM164 795v290h305v-290h-305z" />
<glyph unicode=";" horiz-adv-x="632" d="M164 0v291h305v-258q0 -284 -305 -307v139q68 12 84 38.5t16 96.5h-100zM164 795v290h305v-290h-305z" />
<glyph unicode="&#x3c;" horiz-adv-x="1077" d="M82 649l2 144l799 477l112 -180l-614 -369l614 -369l-114 -184z" />
<glyph unicode="=" horiz-adv-x="1153" d="M102 465v205h949v-205h-949zM102 840v204h949v-204h-949z" />
<glyph unicode="&#x3e;" horiz-adv-x="1077" d="M82 352l614 369l-614 369l113 180l798 -477l2 -144l-798 -481z" />
<glyph unicode="?" horiz-adv-x="1124" d="M41 958q6 229 140 367.5t392 138.5q213 0 351.5 -114.5t138.5 -286.5q0 -72 -17.5 -128t-52.5 -97t-66.5 -65.5t-78.5 -53.5q-6 -4 -30.5 -18.5t-32 -18.5t-28 -17.5t-27.5 -20.5t-22.5 -20.5t-20.5 -23.5t-12 -24.5t-10 -30t-3 -31.5v-49h-248v63q0 61 16 108.5t51 84.5 t62.5 57.5t74.5 48.5q61 39 86 56.5t53.5 60.5t28.5 98q0 70 -56 118t-165 48q-238 0 -254 -272zM397 0v291h305v-291h-305z" />
<glyph unicode="@" horiz-adv-x="1495" d="M82 713q0 326 184.5 535.5t497.5 209.5q303 0 476 -200.5t173 -524.5q0 -242 -74.5 -340t-236.5 -98q-117 0 -180 92q-86 -92 -207 -92q-119 0 -197 68.5t-78 173.5q0 190 219 241l101 23q59 12 83.5 31.5t24.5 56.5q0 86 -114 86q-109 0 -136 -115l-155 45q16 98 91 163 t196 65q131 0 209.5 -69t78.5 -206v-336q0 -72 76 -71q147 0 148 278q0 252 -127 418t-371 166q-252 0 -390 -168t-138 -432t128 -428t377 -164q74 0 142.5 22.5t99.5 44.5l31 23l80 -133q-16 -12 -45 -30.5t-120 -48.5t-188 -30q-322 0 -490.5 207t-168.5 537zM612 551 q0 -94 129 -94q41 0 85 24.5t44 67.5v166h-4q-8 -23 -69 -37l-84 -21q-55 -14 -78 -37.5t-23 -68.5z" />
<glyph unicode="A" horiz-adv-x="1290" d="M10 0l518 1434h236l516 -1434h-285l-82 236h-546l-82 -236h-275zM444 465h392l-193 559h-4z" />
<glyph unicode="B" horiz-adv-x="1329" d="M164 0v1434h608q190 0 306 -112t116 -273q0 -180 -156 -273v-2q92 -39 150.5 -124t58.5 -204q0 -205 -125 -327q-125 -119 -411 -119h-547zM440 256h334q197 0 197 190q0 88 -52.5 136.5t-142.5 48.5h-336v-375zM440 856h297q84 0 132.5 40t48.5 118q0 82 -47.5 123 t-133.5 41h-297v-322z" />
<glyph unicode="C" horiz-adv-x="1343" d="M82 739q0 340 183.5 532.5t436.5 192.5q221 0 376 -138t179 -372l-274 -43q-18 131 -86 214t-192 83q-141 0 -239.5 -122.5t-98.5 -346.5q0 -262 95 -388t243 -126q241 0 280 344l287 -63q-35 -250 -182.5 -393.5t-384.5 -143.5q-276 0 -449.5 191.5t-173.5 578.5z" />
<glyph unicode="D" horiz-adv-x="1335" d="M164 0v1434h479q123 0 231.5 -43t196.5 -127t140.5 -224.5t52.5 -320.5q0 -197 -53.5 -342.5t-145.5 -224t-199.5 -115.5t-234.5 -37h-467zM440 256h191q74 0 129 17.5t104 64.5t76 142t27 239q0 240 -89.5 349.5t-234.5 109.5h-203v-922z" />
<glyph unicode="E" horiz-adv-x="1183" d="M164 0v1434h907v-256h-631v-322h574v-246h-574v-354h631v-256h-907z" />
<glyph unicode="F" horiz-adv-x="1144" d="M164 0v1434h909v-256h-633v-379h576v-244h-576v-555h-276z" />
<glyph unicode="G" horiz-adv-x="1337" d="M82 739q0 340 183.5 532.5t436.5 192.5q217 0 370 -131t183 -356l-276 -45q-51 276 -274 276q-141 0 -239.5 -122.5t-98.5 -346.5q0 -262 95 -388t243 -126q133 0 209.5 76t76.5 213h-266v236h530v-191q0 -272 -153 -431t-397 -159q-276 0 -449.5 191.5t-173.5 578.5z " />
<glyph unicode="H" horiz-adv-x="1372" d="M164 0v1434h276v-578h492v578h276v-1434h-276v621h-492v-621h-276z" />
<glyph unicode="I" horiz-adv-x="624" d="M174 0v1434h277v-1434h-277z" />
<glyph unicode="J" horiz-adv-x="940" d="M20 305l248 72q29 -152 129 -152q57 0 85 31t28 104v1074h276v-1053q0 -209 -102 -310.5t-287 -101.5q-166 0 -262.5 99.5t-114.5 236.5z" />
<glyph unicode="K" horiz-adv-x="1275" d="M143 0v1434h277v-603h4l508 603h321l-536 -633l579 -801h-333l-433 590h-4l-106 -141v-449h-277z" />
<glyph unicode="L" horiz-adv-x="1062" d="M164 0v1434h276v-1178h592v-256h-868z" />
<glyph unicode="M" horiz-adv-x="1734" d="M164 0v1434h285l415 -930h4l416 930h287v-1434h-271v881h-4l-407 -881h-45l-408 881h-4v-881h-268z" />
<glyph unicode="N" horiz-adv-x="1411" d="M164 0v1434h276l525 -940h4v940h278v-1434h-272l-531 940h-4v-940h-276z" />
<glyph unicode="O" horiz-adv-x="1409" d="M82 729q0 178 52 321.5t141.5 232.5t199 135t230 46t230 -46t199 -135t141.5 -232.5t52 -321.5q0 -199 -52 -349.5t-141.5 -237.5t-198 -130t-231 -43t-231 43t-198 130t-141.5 237.5t-52 349.5zM369 729q0 -262 94 -384t241.5 -122t241.5 120t94 386q0 233 -97 356 t-238 123q-143 0 -239.5 -122.5t-96.5 -356.5z" />
<glyph unicode="P" horiz-adv-x="1249" d="M164 0v1434h581q219 0 356.5 -124t137.5 -333t-132 -332t-362 -123h-305v-522h-276zM440 778h301q92 0 151.5 54.5t59.5 144.5q0 104 -60.5 152.5t-150.5 48.5h-301v-400z" />
<glyph unicode="Q" horiz-adv-x="1415" d="M82 729q0 178 52 321.5t141.5 232.5t199 135t230 46t230 -46t199 -135t141.5 -232.5t52 -321.5q0 -295 -129 -489l135 -134l-139 -139l-127 127q-158 -125 -362 -125q-123 0 -231.5 43t-198 130t-141.5 237.5t-52 349.5zM369 729q0 -262 94 -384t242 -122q115 0 184 47 l-295 295l139 140l268 -269q39 113 39 293q0 233 -97 356t-238 123q-143 0 -239.5 -122.5t-96.5 -356.5z" />
<glyph unicode="R" horiz-adv-x="1302" d="M164 0v1434h581q221 0 357.5 -124t136.5 -333q0 -156 -81 -264.5t-222 -153.5l305 -559h-299l-289 532h-213v-532h-276zM440 772h283q235 0 235 203q0 209 -235 209h-283v-412z" />
<glyph unicode="S" horiz-adv-x="1224" d="M72 479l290 64q27 -168 87.5 -243t197.5 -75q117 0 186.5 42t69.5 124q0 86 -66.5 132t-304.5 120q-223 70 -316 169t-93 245q0 168 130 287.5t353 119.5q203 0 349.5 -98t183.5 -293l-269 -67q-63 202 -262 202h-2q-106 0 -158.5 -41t-52.5 -108q0 -63 59.5 -97 t305.5 -118q238 -82 326 -177.5t88 -256.5q0 -190 -143.5 -315.5t-383.5 -125.5q-244 0 -394 128t-181 382z" />
<glyph unicode="T" horiz-adv-x="1157" d="M20 1178v256h1117v-256h-420v-1178h-277v1178h-420z" />
<glyph unicode="U" horiz-adv-x="1345" d="M133 467v967h277v-955q0 -117 66.5 -185.5t195.5 -68.5t196.5 67.5t67.5 182.5v959h276v-967q0 -242 -147 -370t-393 -128t-392.5 128t-146.5 370z" />
<glyph unicode="V" horiz-adv-x="1302" d="M10 1434h291l354 -1018h7l344 1018h286l-512 -1434h-252z" />
<glyph unicode="W" horiz-adv-x="1857" d="M61 1434h281l184 -975h6l330 975h139l330 -975h6l185 975h274l-278 -1434h-287l-295 891h-12l-297 -891h-287z" />
<glyph unicode="X" horiz-adv-x="1251" d="M20 0l449 772l-387 662h315l258 -494h4l263 494h305l-416 -715l420 -719h-316l-288 551h-4l-297 -551h-306z" />
<glyph unicode="Y" horiz-adv-x="1212" d="M0 1434h297l307 -588h4l307 588h297l-469 -830v-604h-274v604z" />
<glyph unicode="Z" horiz-adv-x="1200" d="M82 0v260l692 903v4h-663v267h1007v-260l-696 -904v-4h696v-266h-1036z" />
<glyph unicode="[" horiz-adv-x="731" d="M143 -373v1868h527v-174h-342v-1520h342v-174h-527z" />
<glyph unicode="\" horiz-adv-x="923" d="M10 1456l166 76l737 -1557l-165 -71z" />
<glyph unicode="]" horiz-adv-x="731" d="M143 -199h342v1520h-342v174h527v-1868h-527v174z" />
<glyph unicode="^" horiz-adv-x="1146" d="M123 666l354 768h193l354 -768h-207l-244 557l-243 -557h-207z" />
<glyph unicode="_" horiz-adv-x="1232" d="M102 -143h1028v-185h-1028v185z" />
<glyph unicode="`" horiz-adv-x="612" d="M82 1475h283l165 -256h-223z" />
<glyph unicode="a" d="M72 291q0 141 84 215t284 123q186 45 233.5 71.5t47.5 75.5t-46 82t-138 33q-109 0 -156 -48t-74 -130l-221 92q39 137 151.5 224t294.5 87q199 0 326 -104.5t127 -323.5v-688h-223v104h-4q-4 -6 -10.5 -15t-31 -31.5t-55 -41t-84 -33t-114.5 -14.5q-197 0 -294 93.5 t-97 228.5zM328 309q0 -110 156 -110h3q121 0 181.5 46t60.5 113v189h-4q-8 -16 -17.5 -25.5t-62.5 -31t-151 -46.5q-102 -25 -134 -58.5t-32 -76.5z" />
<glyph unicode="b" horiz-adv-x="1226" d="M143 0v1495h267v-514h4q4 6 10 15.5t31.5 32t55.5 40.5t78 32.5t101 14.5q201 0 333 -158.5t132 -414.5q0 -262 -128 -418t-343 -156q-88 0 -159.5 34t-98.5 67l-29 34h-4v-104h-250zM410 444q0 -98 62.5 -166.5t170.5 -68.5q117 0 181.5 85t64.5 249q0 166 -64.5 250 t-181.5 84q-109 0 -171 -68t-62 -166v-199z" />
<glyph unicode="c" d="M72 543q0 268 146.5 420.5t361.5 152.5q182 0 305 -106.5t151 -284.5l-248 -47q-39 199 -208 199q-113 0 -179.5 -85t-66.5 -249t65.5 -249t180.5 -85q180 0 215 229l252 -65q-37 -195 -160 -299.5t-309 -104.5q-221 0 -363.5 151.5t-142.5 422.5z" />
<glyph unicode="d" horiz-adv-x="1226" d="M72 543q0 264 139 418.5t328 154.5q86 0 154.5 -33.5t92.5 -66.5l27 -35h4v514h266v-1495h-249v104h-5q-10 -14 -29.5 -36.5t-94 -60.5t-162.5 -38q-215 0 -343 156t-128 418zM338 543q0 -164 64.5 -249t181.5 -85q109 0 171 68.5t62 166.5v199q0 98 -62.5 166t-170.5 68 q-117 0 -181.5 -84t-64.5 -250z" />
<glyph unicode="e" horiz-adv-x="1142" d="M72 543q0 260 142 416.5t359.5 156.5t357.5 -156.5t140 -416.5v-80h-729q6 -125 68.5 -191.5t171.5 -66.5q92 0 152.5 46t113.5 124l186 -164q-166 -242 -448 -242q-227 0 -370.5 157t-143.5 417zM342 662h471q-10 104 -71.5 162.5t-168.5 58.5q-98 0 -160.5 -63.5 t-70.5 -157.5z" />
<glyph unicode="f" horiz-adv-x="731" d="M31 860v225h174v154q0 139 72.5 197.5t211.5 58.5h213v-235h-157q-49 0 -68.5 -19.5t-19.5 -66.5v-89h274v-225h-266v-860h-266v860h-168z" />
<glyph unicode="g" horiz-adv-x="1236" d="M72 543q0 264 145 418.5t342 154.5q186 0 287 -135h4v104h254v-1085q0 -238 -138.5 -365t-357.5 -127q-170 0 -287.5 74t-170.5 197l198 137q47 -92 106.5 -134t153.5 -42q104 0 167 54t63 173v137h-4q-31 -55 -107 -95t-164 -40q-209 0 -350 152.5t-141 421.5zM338 543 q0 -162 74.5 -248t191.5 -86q106 0 170 64.5t64 158.5v223q0 92 -63.5 157t-170.5 65q-119 0 -192.5 -86t-73.5 -248z" />
<glyph unicode="h" horiz-adv-x="1189" d="M143 0v1495h267v-514h4q33 53 108.5 94t155.5 41q174 0 276.5 -106.5t102.5 -286.5v-723h-266v664q0 90 -48.5 148t-144.5 58q-92 0 -140 -52t-48 -136v-682h-267z" />
<glyph unicode="i" horiz-adv-x="552" d="M143 0v1085h267v-1085h-267zM143 1243v252h267v-252h-267z" />
<glyph unicode="j" horiz-adv-x="557" d="M20 -123h50q78 0 77 90v1118h267v-1191q0 -293 -281 -293h-113v276zM147 1243v252h267v-252h-267z" />
<glyph unicode="k" horiz-adv-x="1177" d="M143 0v1495h267v-858h4l395 448h334l-391 -440l426 -645h-295l-332 496h-4l-137 -156v-340h-267z" />
<glyph unicode="l" horiz-adv-x="563" d="M143 0v1495h277v-1495h-277z" />
<glyph unicode="m" horiz-adv-x="1771" d="M143 0v1085h244v-104h4q37 57 107.5 96t154.5 39q86 0 162 -40t115 -103h4q41 63 116.5 103t166.5 40q195 0 308 -102.5t113 -270.5v-743h-243v688q0 80 -46 131t-143 51q-90 0 -138 -47t-48 -121v-702h-244v688q0 78 -49 130t-139 52q-92 0 -139.5 -47t-47.5 -121v-702 h-258z" />
<glyph unicode="n" horiz-adv-x="1208" d="M143 0v1085h256v-104h4q45 57 123 96t164 39q180 0 282.5 -107.5t102.5 -297.5v-711h-266v645q0 113 -43 169t-148 56q-98 0 -153 -56t-55 -150v-664h-267z" />
<glyph unicode="o" horiz-adv-x="1159" d="M72 543q0 266 147.5 419.5t360.5 153.5t360 -153.5t147 -419.5q0 -270 -143 -422t-364.5 -152t-364.5 151.5t-143 422.5zM334 543q0 -162 65.5 -248t180 -86t180 87t65.5 246.5t-66.5 247t-179 87.5t-179 -86t-66.5 -248z" />
<glyph unicode="p" horiz-adv-x="1247" d="M143 -461v1546h254v-104h4q4 6 10.5 15.5t32 32t56 40.5t83 32.5t111.5 14.5q193 0 337.5 -154.5t144.5 -418.5q0 -266 -139.5 -420t-338.5 -154q-59 0 -109 14.5t-81 34t-53.5 39t-32.5 33.5l-8 14h-4v-565h-267zM410 432q0 -94 63.5 -158.5t169.5 -64.5q117 0 191.5 86 t74.5 248t-73.5 248t-192.5 86q-106 0 -169.5 -65t-63.5 -157v-223z" />
<glyph unicode="q" horiz-adv-x="1247" d="M72 543q0 264 144 418.5t337 154.5q59 0 111.5 -14.5t84 -33.5t55 -38.5t32.5 -34.5l10 -14h4v104h254v-1546h-266v565h-4q-4 -6 -10.5 -15t-30 -31.5t-53 -41t-81 -33t-110.5 -14.5q-199 0 -338 153.5t-139 420.5zM338 543q0 -162 74.5 -248t191.5 -86q106 0 170 64.5 t64 158.5v223q0 92 -63.5 157t-170.5 65q-119 0 -192.5 -86t-73.5 -248z" />
<glyph unicode="r" horiz-adv-x="751" d="M143 0v1085h252v-114h4q31 61 91.5 98t132.5 37q51 0 98 -21l-41 -258q-45 16 -84 17q-186 0 -186 -248v-596h-267z" />
<glyph unicode="s" horiz-adv-x="1058" d="M61 358l240 62q29 -227 244 -227q98 0 156.5 31.5t58.5 88.5q0 47 -45 71t-189 65q-39 10 -59 16q-188 53 -276.5 126t-88.5 193q0 135 110 233.5t300 98.5q365 0 457 -319l-221 -68q-29 78 -81.5 123t-152.5 45q-78 0 -124 -29.5t-46 -70.5q0 -45 54.5 -71t271.5 -87 q190 -51 258.5 -130t68.5 -202q0 -131 -113.5 -234.5t-328.5 -103.5q-225 0 -347 113.5t-147 275.5z" />
<glyph unicode="t" horiz-adv-x="792" d="M31 860v225h174v267h252v-267h274v-225h-270v-448q0 -86 28.5 -121t116.5 -35h88v-256h-112q-219 0 -301 92t-82 295v473h-168z" />
<glyph unicode="u" horiz-adv-x="1187" d="M133 385v700h266v-671q0 -102 39 -145.5t125 -43.5q96 0 155.5 50.5t59.5 158.5v651h266v-1085h-253v104h-5q-100 -135 -282 -135q-188 0 -279.5 113t-91.5 303z" />
<glyph unicode="v" horiz-adv-x="1134" d="M20 1085h277l270 -698h4l271 698h272l-434 -1085h-225z" />
<glyph unicode="w" horiz-adv-x="1662" d="M61 1085h261l143 -725h6l242 725h241l224 -723h4l164 723h256l-261 -1085h-262l-248 780h-4l-268 -780h-258z" />
<glyph unicode="x" horiz-adv-x="1130" d="M20 0l377 561l-354 524h276l244 -364h4l244 364h276l-354 -524l377 -561h-285l-258 389h-4l-258 -389h-285z" />
<glyph unicode="y" horiz-adv-x="1126" d="M10 1085h271l280 -735h4l281 735h270l-624 -1546h-265l217 514z" />
<glyph unicode="z" horiz-adv-x="1101" d="M82 0v223l577 613v4h-555v245h895v-219l-565 -606v-4h586v-256h-938z" />
<glyph unicode="{" horiz-adv-x="792" d="M82 492v182h57q59 0 84 29.5t25 95.5v360q0 190 83 263t255 73h104v-184h-133q-68 0 -96.5 -43t-28.5 -144v-331q0 -57 -18.5 -101.5t-46 -66t-46 -30.5t-32.5 -11q12 -4 29.5 -13.5t46 -31t48 -64.5t19.5 -98v-379q0 -102 30 -144t105 -42h123v-185h-104q-172 0 -255 73 t-83 263v410q0 66 -24.5 92.5t-84.5 26.5h-57z" />
<glyph unicode="|" horiz-adv-x="542" d="M184 -614v2201h174v-2201h-174z" />
<glyph unicode="}" horiz-adv-x="792" d="M82 -188h123q76 0 105.5 42t29.5 144v379q0 55 18.5 98t47 64.5t46 31t29.5 13.5q-12 2 -30.5 11t-46 30.5t-46 65.5t-18.5 102v331q0 100 -28.5 143.5t-96.5 43.5h-133v184h104q172 0 255 -72.5t83 -263.5v-360q0 -66 24.5 -95.5t84.5 -29.5h57v-182h-57 q-59 0 -84 -26.5t-25 -92.5v-410q0 -190 -83 -263t-255 -73h-104v185z" />
<glyph unicode="~" horiz-adv-x="1257" d="M82 606q14 86 49 159t104.5 127t163.5 54q86 0 173 -45t163 -89t131 -44q96 0 144 182l166 -45q-14 -86 -49 -158.5t-105 -127t-164 -54.5q-86 0 -174 45t-164 89t-131 44q-94 0 -141 -182z" />
<glyph unicode="&#xa1;" horiz-adv-x="673" d="M184 795v290h305v-290h-305zM197 -348v960h276v-960h-276z" />
<glyph unicode="&#xa2;" horiz-adv-x="1138" d="M92 543q0 254 131 404.5t332 166.5v178h72v-176q172 -8 286.5 -113.5t143.5 -277.5l-248 -47q-35 182 -182 196v-663q153 18 188 227l252 -65q-35 -186 -150.5 -289.5t-289.5 -112.5v-196h-72v196q-205 14 -334 165t-129 407zM354 543q0 -299 201 -332v661 q-94 -16 -147.5 -99t-53.5 -230z" />
<glyph unicode="&#xa3;" horiz-adv-x="1312" d="M164 0v258h63q41 0 69 22.5t28 71.5v266h-160v185h160v209q0 233 114.5 342.5t309.5 109.5q387 0 442 -411l-254 -52q-20 113 -58 165.5t-118 52.5q-160 0 -160 -193v-223h352v-185h-352v-360h586v-258h-1022z" />
<glyph unicode="&#xa4;" horiz-adv-x="1329" d="M143 233l133 134q-96 131 -96 307q0 170 96 305l-133 133l82 82l129 -131q137 117 310 117q180 0 313 -113l127 127l82 -82l-131 -131q94 -137 94 -307q0 -178 -96 -309l133 -132l-82 -81l-131 129q-131 -104 -309 -105q-182 0 -308 107l-131 -131zM444 672 q1 -254 222 -254q94 0 155.5 58.5t61.5 195.5q0 262 -217 262q-221 0 -222 -262z" />
<glyph unicode="&#xa5;" horiz-adv-x="1380" d="M82 1434h303l299 -568h4l305 568h305l-346 -607h283v-215h-410v-157h410v-215h-410v-240h-276v240h-410v215h410v157h-410v215h283z" />
<glyph unicode="&#xa6;" horiz-adv-x="583" d="M184 -268v669h215v-669h-215zM184 657v670h215v-670h-215z" />
<glyph unicode="&#xa7;" horiz-adv-x="1333" d="M102 637q0 80 51.5 156.5t131.5 115.5q-47 68 -47 176q0 170 116.5 274.5t299 104.5t295 -101t138.5 -292l-235 -43q-27 190 -180 191q-80 0 -122 -41t-42 -93q0 -57 35 -94t112 -69l361 -146q215 -86 215 -299q0 -80 -51.5 -156.5t-130.5 -115.5q47 -68 47 -176 q0 -170 -117 -274.5t-299 -104.5t-294.5 101.5t-139.5 291.5l235 43q27 -190 181 -190q80 0 121.5 40.5t41.5 92.5q0 57 -34.5 94t-112.5 70l-361 145q-215 86 -215 299zM379 639q0 -80 129 -129l274 -104q78 -31 103 -56q70 51 69 125q0 80 -129 129l-274 105 q-78 31 -102 55q-70 -51 -70 -125z" />
<glyph unicode="&#xa8;" horiz-adv-x="862" d="M102 1219v235h250v-235h-250zM510 1219v235h250v-235h-250z" />
<glyph unicode="&#xa9;" horiz-adv-x="1427" d="M82 725q0 268 181 449.5t449.5 181.5t451 -181.5t182.5 -449.5t-182.5 -450.5t-451 -182.5t-449.5 182.5t-181 450.5zM231 725q0 -207 139.5 -351.5t342 -144.5t343 144.5t140.5 351.5q0 203 -140.5 346t-343 143t-342 -142t-139.5 -347zM397 721q0 182 93.5 286.5 t232.5 104.5q113 0 188.5 -72.5t94.5 -195.5l-168 -31q-25 135 -115 135q-66 0 -102.5 -59.5t-36.5 -167.5q0 -113 39 -170t100 -57q94 -1 119 149l170 -39q-20 -131 -97 -202.5t-192 -71.5q-141 0 -233.5 103.5t-92.5 287.5z" />
<glyph unicode="&#xaa;" horiz-adv-x="700" d="M72 958q0 84 48 126t167 73q106 27 131.5 42t25.5 44q0 63 -96 64q-98 0 -131 -101l-137 56q23 78 89.5 130t172.5 52q121 0 193.5 -61.5t72.5 -190.5v-406h-131v62h-2q-4 -8 -15 -21.5t-56.5 -36t-102.5 -22.5q-115 0 -172 55.5t-57 134.5zM219 975q0 -61 92 -62 q70 0 102.5 27t32.5 66v98q-16 -26 -133 -57q-94 -25 -94 -72z" />
<glyph unicode="&#xab;" horiz-adv-x="1189" d="M164 575l221 381h238l-224 -381l230 -385h-238zM582 575l221 381h237l-223 -381l230 -385h-238z" />
<glyph unicode="&#xac;" horiz-adv-x="1222" d="M102 678v246h977v-570h-256v324h-721z" />
<glyph unicode="&#xad;" horiz-adv-x="837" d="M82 569v205h674v-205h-674z" />
<glyph unicode="&#xae;" horiz-adv-x="884" d="M82 1083q0 156 103.5 259.5t254.5 103.5q156 0 259.5 -103.5t103.5 -259.5q0 -152 -103.5 -255t-259.5 -103q-152 0 -255 103.5t-103 254.5zM152 1083q0 -123 82.5 -207.5t205.5 -84.5q125 0 209 85t84 207q0 125 -84 210t-209 85q-123 0 -205.5 -85t-82.5 -210zM311 870 v428h150q72 0 110.5 -35.5t38.5 -99.5q0 -94 -92 -129l92 -164h-92l-86 156h-35v-156h-86zM397 1106h56q70 0 69 57q0 59 -69 60h-56v-117z" />
<glyph unicode="&#xaf;" horiz-adv-x="794" d="M102 1270v164h590v-164h-590z" />
<glyph unicode="&#xb0;" horiz-adv-x="788" d="M92 1286q0 131 87 223.5t214 92.5q131 0 217 -91.5t86 -224.5q0 -135 -85 -223t-218 -88q-131 0 -216 89t-85 222zM268 1286q0 -145 125 -145t125 145q0 150 -125 150t-125 -150z" />
<glyph unicode="&#xb1;" horiz-adv-x="1193" d="M82 856v205h407v311h216v-311h407v-205h-407v-354h-216v354h-407zM123 166v205h950v-205h-950z" />
<glyph unicode="&#xb2;" horiz-adv-x="708" d="M41 1550q10 143 95 223t231 80q123 0 207.5 -73.5t84.5 -206.5q0 -98 -60 -160.5t-165 -112.5q-150 -74 -168 -104q-12 -18 -12 -39h414v-188h-615v137q0 113 60 178q53 61 192 127q121 59 148 88q33 35 32 86q0 104 -125 105q-123 0 -145 -162z" />
<glyph unicode="&#xb3;" horiz-adv-x="694" d="M10 1255l176 41q25 -174 164 -174q143 0 144 115q0 113 -150 113h-57v141h55q106 0 107 94q0 104 -111 105q-98 0 -117 -121l-170 33q12 119 91 185t204 66q119 0 195.5 -64.5t76.5 -172.5q0 -70 -32.5 -113t-67.5 -59v-4q49 -14 97.5 -67.5t48.5 -151.5q0 -113 -81 -188 t-233 -75q-141 0 -231.5 76t-108.5 221z" />
<glyph unicode="&#xb4;" horiz-adv-x="612" d="M82 1219l166 256h282l-225 -256h-223z" />
<glyph unicode="&#xb5;" horiz-adv-x="1198" d="M154 -461v1546h266v-641q0 -219 192 -219q186 0 187 193v667h266v-1085h-258v104h-4q-66 -135 -219 -135q-113 0 -168 60h-4v-490h-258z" />
<glyph unicode="&#xb6;" horiz-adv-x="1122" d="M0 971q0 158 96.5 249t241.5 91h641v-1590h-195v1364h-260v-1364h-194v910q-139 4 -234.5 98t-95.5 242z" />
<glyph unicode="&#xb7;" horiz-adv-x="632" d="M164 600v291h305v-291h-305z" />
<glyph unicode="&#xb8;" horiz-adv-x="538" d="M23 -360l88 106q68 -66 149 -65q45 0 70.5 18t25.5 49q0 29 -25.5 45.5t-60.5 16.5q-29 0 -52 -8.5t-34 -16.5l-8 -8l-108 61l96 162h121l-76 -119l2 -2q45 31 113 31q70 0 125 -44t55 -122q0 -92 -65.5 -146.5t-166.5 -54.5q-157 1 -249 97z" />
<glyph unicode="&#xb9;" horiz-adv-x="532" d="M20 1518v200l201 125h168v-874h-180v665z" />
<glyph unicode="&#xba;" horiz-adv-x="702" d="M51 1108q0 158 86 248t213 90t214 -90t87 -248q0 -160 -85 -250t-216 -90t-215 90t-84 250zM217 1108q0 -182 133 -182q63 0 98 47t35 135q0 84 -36.5 132t-96 48t-96.5 -47t-37 -133z" />
<glyph unicode="&#xbb;" horiz-adv-x="1189" d="M143 190l230 385l-223 381h237l221 -381l-227 -385h-238zM561 190l230 385l-224 381h238l221 -381l-227 -385h-238z" />
<glyph unicode="&#xbc;" horiz-adv-x="1675" d="M31 1108v201l200 125h168v-875h-180v666zM238 -70l1001 1669l147 -92l-999 -1667zM942 160v168l332 546h256v-546h94v-168h-94v-160h-184v160h-404zM1114 328h234v381h-5z" />
<glyph unicode="&#xbd;" horiz-adv-x="1779" d="M31 1108v201l200 125h168v-875h-180v666zM238 -72l1001 1669l147 -92l-999 -1667zM1040 582q10 143 95.5 223t230.5 80q123 0 208 -74t85 -207q0 -98 -60.5 -160.5t-164.5 -111.5q-150 -74 -168 -105q-12 -18 -13 -39h414v-188h-614v137q0 113 59 178q53 61 193 127 q121 59 147 88q33 35 33 86q0 104 -125 105q-123 0 -146 -162z" />
<glyph unicode="&#xbe;" horiz-adv-x="1816" d="M51 846l176 41q25 -174 164 -174q143 0 144 114q0 113 -150 113h-57v141h55q106 0 106 95q0 104 -110 104q-98 0 -117 -121l-170 33q12 119 91 185.5t204 66.5q119 0 195.5 -64.5t76.5 -173.5q0 -70 -32.5 -112.5t-67.5 -59.5v-4q49 -14 97.5 -67.5t48.5 -151.5 q0 -113 -81 -187.5t-233 -74.5q-141 0 -231.5 76t-108.5 221zM406 -70l1001 1669l147 -92l-999 -1667zM1083 160v168l332 546h256v-546h94v-168h-94v-160h-184v160h-404zM1255 328h234v381h-4z" />
<glyph unicode="&#xbf;" horiz-adv-x="1124" d="M61 23q0 72 17.5 128t52.5 97t66.5 65.5t78.5 53.5q6 4 31 18t32 18.5t27.5 17.5t27.5 20.5t22.5 20.5t20.5 23.5t12.5 24.5t10.5 29.5t3 31.5v50h248v-64q0 -61 -16.5 -108.5t-51.5 -84t-62.5 -57t-74.5 -49.5q-61 -39 -86 -56.5t-53.5 -60.5t-28.5 -98q0 -70 56.5 -118 t164.5 -48q238 0 254 273l270 -23q-6 -229 -140 -367.5t-392 -138.5q-213 0 -351.5 114.5t-138.5 287.5zM422 795v290h305v-290h-305z" />
<glyph unicode="&#xc0;" horiz-adv-x="1290" d="M10 0l518 1434h236l516 -1434h-285l-82 236h-546l-82 -236h-275zM303 1823h283l166 -256h-224zM444 465h392l-193 559h-4z" />
<glyph unicode="&#xc1;" horiz-adv-x="1290" d="M10 0l518 1434h236l516 -1434h-285l-82 236h-546l-82 -236h-275zM444 465h392l-193 559h-4zM541 1567l166 256h282l-225 -256h-223z" />
<glyph unicode="&#xc2;" horiz-adv-x="1290" d="M10 0l518 1434h236l516 -1434h-285l-82 236h-546l-82 -236h-275zM369 1638l137 177h276l140 -177l-140 -108l-137 176l-141 -176zM444 465h392l-193 559h-4z" />
<glyph unicode="&#xc3;" horiz-adv-x="1290" d="M10 0l518 1434h236l516 -1434h-285l-82 236h-546l-82 -236h-275zM311 1567q35 225 207 225q68 0 158 -41q74 -39 96 -39q59 0 76 70h135q-35 -225 -207 -226q-68 0 -158 41q-74 39 -96 39q-60 1 -76 -69h-135zM444 465h392l-193 559h-4z" />
<glyph unicode="&#xc4;" horiz-adv-x="1290" d="M10 0l518 1434h236l516 -1434h-285l-82 236h-546l-82 -236h-275zM317 1567v235h250v-235h-250zM444 465h392l-193 559h-4zM725 1567v235h250v-235h-250z" />
<glyph unicode="&#xc5;" horiz-adv-x="1290" d="M10 0l514 1421q-94 61 -94 187q0 92 61.5 156.5t151.5 64.5q94 0 154.5 -63.5t60.5 -157.5q0 -121 -90 -185l512 -1423h-285l-82 236h-546l-82 -236h-275zM444 465h392l-193 559h-4zM561 1610q0 -49 24.5 -77t57.5 -28t59.5 28t26.5 77t-25.5 74.5t-60.5 25.5 q-33 0 -57.5 -25.5t-24.5 -74.5z" />
<glyph unicode="&#xc6;" horiz-adv-x="1783" d="M10 0l539 1434h1122v-256h-549v-322h492v-240h-492v-360h549v-256h-678l-2 6v-6h-145v250h-455l-96 -250h-285zM479 496h367v682h-121z" />
<glyph unicode="&#xc7;" horiz-adv-x="1343" d="M82 739q0 340 183.5 532.5t436.5 192.5q221 0 376 -138t179 -372l-274 -43q-18 131 -86 214t-192 83q-141 0 -239.5 -122.5t-98.5 -346.5q0 -262 95 -388t243 -126q242 0 280 344l287 -63q-33 -236 -166 -377t-348 -158l-58 -90l2 -2q45 31 113 31q70 0 125 -44t55 -122 q0 -92 -65.5 -146.5t-165.5 -54.5q-158 1 -250 97l88 106q68 -66 150 -65q45 0 70.5 18t25.5 49q0 29 -25.5 45.5t-60.5 16.5q-29 0 -52.5 -8.5t-33.5 -16.5l-8 -8l-109 61l80 135q-252 20 -404.5 211t-152.5 555z" />
<glyph unicode="&#xc8;" horiz-adv-x="1183" d="M164 0v1434h907v-256h-631v-322h574v-246h-574v-354h631v-256h-907zM311 1823h283l166 -256h-223z" />
<glyph unicode="&#xc9;" horiz-adv-x="1183" d="M164 0v1434h907v-256h-631v-322h574v-246h-574v-354h631v-256h-907zM475 1567l166 256h283l-226 -256h-223z" />
<glyph unicode="&#xca;" horiz-adv-x="1183" d="M164 0v1434h907v-256h-631v-322h574v-246h-574v-354h631v-256h-907zM352 1638l137 177h277l139 -177l-139 -108l-137 176l-142 -176z" />
<glyph unicode="&#xcb;" horiz-adv-x="1183" d="M164 0v1434h907v-256h-631v-322h574v-246h-574v-354h631v-256h-907zM289 1567v235h250v-235h-250zM696 1567v235h250v-235h-250z" />
<glyph unicode="&#xcc;" horiz-adv-x="624" d="M-14 1823h282l166 -256h-223zM174 0v1434h277v-1434h-277z" />
<glyph unicode="&#xcd;" horiz-adv-x="624" d="M174 0v1434h277v-1434h-277zM184 1567l166 256h283l-225 -256h-224z" />
<glyph unicode="&#xce;" horiz-adv-x="624" d="M35 1638l137 177h277l139 -177l-139 -108l-138 176l-141 -176zM174 0v1434h277v-1434h-277z" />
<glyph unicode="&#xcf;" horiz-adv-x="624" d="M-16 1567v235h249v-235h-249zM174 0v1434h277v-1434h-277zM391 1567v235h250v-235h-250z" />
<glyph unicode="&#xd0;" horiz-adv-x="1353" d="M41 610v226h141v598h480q123 0 231 -43t196.5 -127t140.5 -224.5t52 -320.5q0 -197 -53 -342.5t-145.5 -224t-200 -115.5t-234.5 -37h-467v610h-141zM459 256h190q74 0 129.5 17.5t104.5 64.5t75.5 142t26.5 239q0 240 -89 349.5t-234 109.5h-203v-342h274v-226h-274 v-354z" />
<glyph unicode="&#xd1;" horiz-adv-x="1411" d="M164 0v1434h276l525 -940h4v940h278v-1434h-272l-531 940h-4v-940h-276zM406 1567q35 225 206 225q68 0 158 -41q74 -39 96 -39q59 0 76 70h135q-35 -225 -207 -226q-68 0 -157 41q-74 39 -97 39q-59 1 -75 -69h-135z" />
<glyph unicode="&#xd2;" horiz-adv-x="1409" d="M82 729q0 178 52 321.5t141.5 232.5t199 135t230 46t230 -46t199 -135t141.5 -232.5t52 -321.5q0 -199 -52 -349.5t-141.5 -237.5t-198 -130t-231 -43t-231 43t-198 130t-141.5 237.5t-52 349.5zM369 729q0 -262 94 -384t241.5 -122t241.5 120t94 386q0 233 -97 356 t-238 123q-143 0 -239.5 -122.5t-96.5 -356.5zM379 1823h283l165 -256h-223z" />
<glyph unicode="&#xd3;" horiz-adv-x="1409" d="M82 729q0 178 52 321.5t141.5 232.5t199 135t230 46t230 -46t199 -135t141.5 -232.5t52 -321.5q0 -199 -52 -349.5t-141.5 -237.5t-198 -130t-231 -43t-231 43t-198 130t-141.5 237.5t-52 349.5zM369 729q0 -262 94 -384t241.5 -122t241.5 120t94 386q0 233 -97 356 t-238 123q-143 0 -239.5 -122.5t-96.5 -356.5zM584 1567l166 256h282l-225 -256h-223z" />
<glyph unicode="&#xd4;" horiz-adv-x="1409" d="M82 729q0 178 52 321.5t141.5 232.5t199 135t230 46t230 -46t199 -135t141.5 -232.5t52 -321.5q0 -199 -52 -349.5t-141.5 -237.5t-198 -130t-231 -43t-231 43t-198 130t-141.5 237.5t-52 349.5zM369 729q0 -262 94 -384t241.5 -122t241.5 120t94 386q0 233 -97 356 t-238 123q-143 0 -239.5 -122.5t-96.5 -356.5zM440 1638l138 177h276l139 -177l-139 -108l-137 176l-142 -176z" />
<glyph unicode="&#xd5;" horiz-adv-x="1409" d="M82 729q0 178 52 321.5t141.5 232.5t199 135t230 46t230 -46t199 -135t141.5 -232.5t52 -321.5q0 -199 -52 -349.5t-141.5 -237.5t-198 -130t-231 -43t-231 43t-198 130t-141.5 237.5t-52 349.5zM369 729q0 -262 94 -384t241.5 -122t241.5 120t94 386q0 233 -97 356 t-238 123q-143 0 -239.5 -122.5t-96.5 -356.5zM389 1567q35 225 207 225q68 0 158 -41q74 -39 96 -39q59 0 76 70h135q-35 -225 -207 -226q-68 0 -158 41q-74 39 -96 39q-60 1 -76 -69h-135z" />
<glyph unicode="&#xd6;" horiz-adv-x="1409" d="M82 729q0 178 52 321.5t141.5 232.5t199 135t230 46t230 -46t199 -135t141.5 -232.5t52 -321.5q0 -199 -52 -349.5t-141.5 -237.5t-198 -130t-231 -43t-231 43t-198 130t-141.5 237.5t-52 349.5zM369 729q0 -262 94 -384t241.5 -122t241.5 120t94 386q0 233 -97 356 t-238 123q-143 0 -239.5 -122.5t-96.5 -356.5zM377 1567v235h250v-235h-250zM784 1567v235h250v-235h-250z" />
<glyph unicode="&#xd7;" horiz-adv-x="1103" d="M82 369l324 323l-304 303l148 148l303 -303l301 301l147 -148l-301 -301l322 -321l-148 -148l-321 322l-324 -324z" />
<glyph unicode="&#xd8;" horiz-adv-x="1409" d="M82 729q0 178 52 321.5t141.5 232.5t199 135t230.5 46q164 0 301 -82l47 82l112 -69l-53 -92q215 -205 215 -574q0 -199 -52 -349.5t-141.5 -237.5t-198 -130t-230.5 -43q-168 0 -306 76l-43 -76l-114 68l49 88q-209 203 -209 604zM369 729q-1 -217 69 -346l436 770 q-76 55 -169 55q-143 0 -239.5 -122.5t-96.5 -356.5zM530 276q74 -53 175 -53q147 0 241 120t94 386q1 193 -73 318z" />
<glyph unicode="&#xd9;" horiz-adv-x="1345" d="M133 467v967h277v-955q0 -117 66.5 -185.5t195.5 -68.5t196.5 67.5t67.5 182.5v959h276v-967q0 -242 -147 -370t-393 -128t-392.5 128t-146.5 370zM360 1823h283l166 -256h-223z" />
<glyph unicode="&#xda;" horiz-adv-x="1345" d="M133 467v967h277v-955q0 -117 66.5 -185.5t195.5 -68.5t196.5 67.5t67.5 182.5v959h276v-967q0 -242 -147 -370t-393 -128t-392.5 128t-146.5 370zM578 1567l165 256h283l-225 -256h-223z" />
<glyph unicode="&#xdb;" horiz-adv-x="1345" d="M133 467v967h277v-955q0 -117 66.5 -185.5t195.5 -68.5t196.5 67.5t67.5 182.5v959h276v-967q0 -242 -147 -370t-393 -128t-392.5 128t-146.5 370zM403 1638l138 177h276l139 -177l-139 -108l-137 176l-141 -176z" />
<glyph unicode="&#xdc;" horiz-adv-x="1345" d="M133 467v967h277v-955q0 -117 66.5 -185.5t195.5 -68.5t196.5 67.5t67.5 182.5v959h276v-967q0 -242 -147 -370t-393 -128t-392.5 128t-146.5 370zM344 1567v235h250v-235h-250zM752 1567v235h249v-235h-249z" />
<glyph unicode="&#xdd;" horiz-adv-x="1212" d="M0 1434h297l307 -588h4l307 588h297l-469 -830v-604h-274v604zM516 1567l166 256h283l-226 -256h-223z" />
<glyph unicode="&#xde;" horiz-adv-x="1280" d="M164 0v1434h276v-238h271q250 0 389 -114.5t139 -342.5q0 -455 -528 -454h-271v-285h-276zM440 541h301q98 0 160 52t62 146.5t-61.5 147.5t-160.5 53h-301v-399z" />
<glyph unicode="&#xdf;" horiz-adv-x="1150" d="M123 0v1014q0 211 127 330.5t321 119.5q188 0 311.5 -106.5t123.5 -272.5q0 -205 -175 -280v-4q102 -35 170 -131.5t68 -231.5q0 -213 -124 -325.5t-353 -112.5h-66v225h39q260 0 260 228q0 115 -60 166t-153 51h-86v192h41q90 0 146.5 48t56.5 134q0 84 -53 134.5 t-142 50.5q-92 0 -144 -54.5t-52 -164.5v-1010h-256z" />
<glyph unicode="&#xe0;" d="M72 291q0 141 84 215t284 123q186 45 233.5 71.5t47.5 75.5t-46 82t-138 33q-109 0 -156 -48t-74 -130l-221 92q39 137 151.5 224t294.5 87q199 0 326 -104.5t127 -323.5v-688h-223v104h-4q-4 -6 -10.5 -15t-31 -31.5t-55 -41t-84 -33t-114.5 -14.5q-197 0 -294 93.5 t-97 228.5zM233 1475h283l166 -256h-223zM328 309q0 -111 159 -110q121 0 181.5 46t60.5 113v189h-4q-8 -16 -17.5 -25.5t-62.5 -31t-151 -46.5q-102 -25 -134 -58.5t-32 -76.5z" />
<glyph unicode="&#xe1;" d="M72 291q0 141 84 215t284 123q186 45 233.5 71.5t47.5 75.5t-46 82t-138 33q-109 0 -156 -48t-74 -130l-221 92q39 137 151.5 224t294.5 87q199 0 326 -104.5t127 -323.5v-688h-223v104h-4q-4 -6 -10.5 -15t-31 -31.5t-55 -41t-84 -33t-114.5 -14.5q-197 0 -294 93.5 t-97 228.5zM328 309q0 -111 159 -110q121 0 181.5 46t60.5 113v189h-4q-8 -16 -17.5 -25.5t-62.5 -31t-151 -46.5q-102 -25 -134 -58.5t-32 -76.5zM397 1219l166 256h283l-225 -256h-224z" />
<glyph unicode="&#xe2;" d="M72 291q0 141 84 215t284 123q186 45 233.5 71.5t47.5 75.5t-46 82t-138 33q-109 0 -156 -48t-74 -130l-221 92q39 137 151.5 224t294.5 87q199 0 326 -104.5t127 -323.5v-688h-223v104h-4q-4 -6 -10.5 -15t-31 -31.5t-55 -41t-84 -33t-114.5 -14.5q-197 0 -294 93.5 t-97 228.5zM270 1298l138 177h276l139 -177l-139 -108l-137 176l-141 -176zM328 309q0 -111 159 -110q121 0 181.5 46t60.5 113v189h-4q-8 -16 -17.5 -25.5t-62.5 -31t-151 -46.5q-102 -25 -134 -58.5t-32 -76.5z" />
<glyph unicode="&#xe3;" d="M72 291q0 141 84 215t284 123q186 45 233.5 71.5t47.5 75.5t-46 82t-138 33q-109 0 -156 -48t-74 -130l-221 92q39 137 151.5 224t294.5 87q199 0 326 -104.5t127 -323.5v-688h-223v104h-4q-4 -6 -10.5 -15t-31 -31.5t-55 -41t-84 -33t-114.5 -14.5q-197 0 -294 93.5 t-97 228.5zM213 1219q35 225 207 225q68 0 158 -41q74 -39 96 -39q59 0 76 70h135q-35 -225 -207 -226q-68 0 -158 41q-74 39 -96 39q-60 1 -76 -69h-135zM328 309q0 -111 159 -110q121 0 181.5 46t60.5 113v189h-4q-8 -16 -17.5 -25.5t-62.5 -31t-151 -46.5 q-102 -25 -134 -58.5t-32 -76.5z" />
<glyph unicode="&#xe4;" d="M72 291q0 141 84 215t284 123q186 45 233.5 71.5t47.5 75.5t-46 82t-138 33q-109 0 -156 -48t-74 -130l-221 92q39 137 151.5 224t294.5 87q199 0 326 -104.5t127 -323.5v-688h-223v104h-4q-4 -6 -10.5 -15t-31 -31.5t-55 -41t-84 -33t-114.5 -14.5q-197 0 -294 93.5 t-97 228.5zM221 1219v235h250v-235h-250zM328 309q0 -111 159 -110q121 0 181.5 46t60.5 113v189h-4q-8 -16 -17.5 -25.5t-62.5 -31t-151 -46.5q-102 -25 -134 -58.5t-32 -76.5zM629 1219v235h250v-235h-250z" />
<glyph unicode="&#xe5;" d="M72 291q0 141 84 215t284 123q186 45 233.5 71.5t47.5 75.5t-46 82t-138 33q-109 0 -156 -48t-74 -130l-221 92q31 115 116 195.5t222 105.5q-88 61 -88 184q0 92 61.5 156.5t151.5 64.5q94 0 154.5 -63.5t60.5 -157.5q0 -125 -96 -188q145 -31 231 -133.5t86 -280.5 v-688h-223v104h-4q-4 -6 -10.5 -15t-31 -31.5t-55 -41t-84 -33t-114.5 -14.5q-197 0 -294 93.5t-97 228.5zM328 309q0 -111 159 -110q121 0 181.5 46t60.5 113v189h-4q-8 -16 -17.5 -25.5t-62.5 -31t-151 -46.5q-102 -25 -134 -58.5t-32 -76.5zM467 1292q0 -49 24.5 -76.5 t57.5 -27.5t59.5 27.5t26.5 76.5t-25.5 75t-60.5 26q-33 0 -57.5 -26t-24.5 -75z" />
<glyph unicode="&#xe6;" horiz-adv-x="1800" d="M72 291q0 135 80.5 212t287.5 126q182 45 231.5 71.5t49.5 75.5t-46 82t-136 33q-76 0 -126.5 -30t-69.5 -62.5t-36 -85.5l-221 92q39 135 151.5 223t297.5 88q231 0 354 -141h4q145 141 338 141q217 0 357.5 -156.5t140.5 -416.5v-80h-730q6 -125 68.5 -191.5 t171.5 -66.5q55 0 97 15.5t75 49t49 57t43 68.5l205 -141q-147 -285 -465 -285q-238 0 -381 168h-4q-4 -6 -13 -17t-43 -41t-75 -51.5t-111.5 -40t-152.5 -18.5q-197 0 -294 93.5t-97 228.5zM328 309q0 -111 159 -110q121 0 181.5 46t60.5 113v189h-4q-8 -16 -17.5 -25.5 t-62.5 -31t-151 -46.5q-102 -25 -134 -58.5t-32 -76.5zM999 662h471q-10 104 -71.5 162.5t-167.5 58.5q-98 0 -161 -63.5t-71 -157.5z" />
<glyph unicode="&#xe7;" d="M72 543q0 268 146.5 420.5t361.5 152.5q182 0 305 -106.5t151 -284.5l-248 -47q-39 199 -208 199q-113 0 -179.5 -85t-66.5 -249t65.5 -249t180.5 -85q180 0 215 229l252 -65q-35 -180 -143.5 -283.5t-274.5 -118.5l-58 -90l2 -2q45 31 113 31q70 0 125 -44t55 -122 q0 -92 -65.5 -146.5t-165.5 -54.5q-158 1 -250 97l88 106q68 -66 150 -65q45 0 70.5 18t25.5 49q0 29 -25.5 45.5t-60.5 16.5q-29 0 -52.5 -8.5t-31.5 -16.5l-10 -8l-109 61l80 135q-197 23 -317.5 171.5t-120.5 398.5z" />
<glyph unicode="&#xe8;" horiz-adv-x="1142" d="M72 543q0 260 142 416.5t359.5 156.5t357.5 -156.5t140 -416.5v-80h-729q6 -125 68.5 -191.5t171.5 -66.5q92 0 152.5 46t113.5 124l186 -164q-166 -242 -448 -242q-227 0 -370.5 157t-143.5 417zM270 1475h283l166 -256h-223zM342 662h471q-10 104 -71.5 162.5 t-168.5 58.5q-98 0 -160.5 -63.5t-70.5 -157.5z" />
<glyph unicode="&#xe9;" horiz-adv-x="1142" d="M72 543q0 260 142 416.5t359.5 156.5t357.5 -156.5t140 -416.5v-80h-729q6 -125 68.5 -191.5t171.5 -66.5q92 0 152.5 46t113.5 124l186 -164q-166 -242 -448 -242q-227 0 -370.5 157t-143.5 417zM342 662h471q-10 104 -71.5 162.5t-168.5 58.5q-98 0 -160.5 -63.5 t-70.5 -157.5zM475 1219l166 256h283l-226 -256h-223z" />
<glyph unicode="&#xea;" horiz-adv-x="1142" d="M72 543q0 260 142 416.5t359.5 156.5t357.5 -156.5t140 -416.5v-80h-729q6 -125 68.5 -191.5t171.5 -66.5q92 0 152.5 46t113.5 124l186 -164q-166 -242 -448 -242q-227 0 -370.5 157t-143.5 417zM311 1298l138 177h276l139 -177l-139 -108l-137 176l-142 -176zM342 662 h471q-10 104 -71.5 162.5t-168.5 58.5q-98 0 -160.5 -63.5t-70.5 -157.5z" />
<glyph unicode="&#xeb;" horiz-adv-x="1142" d="M72 543q0 260 142 416.5t359.5 156.5t357.5 -156.5t140 -416.5v-80h-729q6 -125 68.5 -191.5t171.5 -66.5q92 0 152.5 46t113.5 124l186 -164q-166 -242 -448 -242q-227 0 -370.5 157t-143.5 417zM258 1219v235h250v-235h-250zM342 662h471q-10 104 -71.5 162.5 t-168.5 58.5q-98 0 -160.5 -63.5t-70.5 -157.5zM666 1219v235h249v-235h-249z" />
<glyph unicode="&#xec;" horiz-adv-x="552" d="M-57 1475h282l166 -256h-223zM143 0v1085h267v-1085h-267z" />
<glyph unicode="&#xed;" horiz-adv-x="552" d="M143 0v1085h267v-1085h-267zM150 1219l165 256h283l-225 -256h-223z" />
<glyph unicode="&#xee;" horiz-adv-x="552" d="M2 1298l137 177h277l139 -177l-139 -108l-137 176l-142 -176zM143 0v1085h267v-1085h-267z" />
<glyph unicode="&#xef;" horiz-adv-x="552" d="M-51 1219v235h250v-235h-250zM143 0v1085h267v-1085h-267zM356 1219v235h250v-235h-250z" />
<glyph unicode="&#xf0;" horiz-adv-x="1159" d="M72 543q0 272 125 422.5t329 150.5q158 0 246 -78h4q-41 109 -133 244l-278 -76l-31 113l235 65q-98 119 -190 199v4h283q74 -82 120 -145l256 71l31 -112l-217 -60q236 -375 235 -780q0 -279 -147 -435.5t-360 -156.5q-236 0 -372 149.5t-136 424.5zM338 543 q0 -322 241.5 -322t241.5 322q0 170 -58 248.5t-183 78.5t-183.5 -78.5t-58.5 -248.5z" />
<glyph unicode="&#xf1;" horiz-adv-x="1208" d="M143 0v1085h256v-104h4q45 57 123 96t164 39q180 0 282.5 -107.5t102.5 -297.5v-711h-266v645q0 113 -43 169t-148 56q-98 0 -153 -56t-55 -150v-664h-267zM283 1219q35 225 206 225q68 0 158 -41q74 -39 96 -39q59 0 76 70h135q-35 -225 -206 -226q-68 0 -158 41 q-74 39 -96 39q-60 1 -76 -69h-135z" />
<glyph unicode="&#xf2;" horiz-adv-x="1159" d="M72 543q0 266 147.5 419.5t360.5 153.5t360 -153.5t147 -419.5q0 -270 -143 -422t-364.5 -152t-364.5 151.5t-143 422.5zM244 1475h282l166 -256h-223zM334 543q0 -162 65.5 -248t180 -86t180 87t65.5 246.5t-66.5 247t-179 87.5t-179 -86t-66.5 -248z" />
<glyph unicode="&#xf3;" horiz-adv-x="1159" d="M72 543q0 266 147.5 419.5t360.5 153.5t360 -153.5t147 -419.5q0 -270 -143 -422t-364.5 -152t-364.5 151.5t-143 422.5zM334 543q0 -162 65.5 -248t180 -86t180 87t65.5 246.5t-66.5 247t-179 87.5t-179 -86t-66.5 -248zM489 1219l166 256h283l-225 -256h-224z" />
<glyph unicode="&#xf4;" horiz-adv-x="1159" d="M72 543q0 266 147.5 419.5t360.5 153.5t360 -153.5t147 -419.5q0 -270 -143 -422t-364.5 -152t-364.5 151.5t-143 422.5zM305 1298l137 177h277l139 -177l-139 -108l-137 176l-142 -176zM334 543q0 -162 65.5 -248t180 -86t180 87t65.5 246.5t-66.5 247t-179 87.5 t-179 -86t-66.5 -248z" />
<glyph unicode="&#xf5;" horiz-adv-x="1159" d="M72 543q0 266 147.5 419.5t360.5 153.5t360 -153.5t147 -419.5q0 -270 -143 -422t-364.5 -152t-364.5 151.5t-143 422.5zM260 1219q35 225 207 225q68 0 158 -41q74 -39 96 -39q59 0 76 70h135q-35 -225 -207 -226q-68 0 -158 41q-74 39 -96 39q-60 1 -76 -69h-135z M334 543q0 -162 65.5 -248t180 -86t180 87t65.5 246.5t-66.5 247t-179 87.5t-179 -86t-66.5 -248z" />
<glyph unicode="&#xf6;" horiz-adv-x="1159" d="M72 543q0 266 147.5 419.5t360.5 153.5t360 -153.5t147 -419.5q0 -270 -143 -422t-364.5 -152t-364.5 151.5t-143 422.5zM272 1219v235h250v-235h-250zM334 543q0 -162 65.5 -248t180 -86t180 87t65.5 246.5t-66.5 247t-179 87.5t-179 -86t-66.5 -248zM680 1219v235h250 v-235h-250z" />
<glyph unicode="&#xf7;" horiz-adv-x="950" d="M82 623v204h786v-204h-786zM283 274q0 82 55 137.5t135 55.5q82 0 137.5 -55.5t55.5 -137.5q0 -80 -55.5 -135t-137.5 -55q-80 0 -135 55t-55 135zM283 1161q0 82 55 137.5t135 55.5q82 0 137.5 -55.5t55.5 -137.5q0 -80 -55.5 -135t-137.5 -55q-80 0 -135 55t-55 135z " />
<glyph unicode="&#xf8;" horiz-adv-x="1159" d="M72 543q0 266 147.5 419.5t360.5 153.5q170 0 301 -100l77 100l82 -69l-82 -105q129 -156 129 -399q0 -270 -143 -422t-364 -152q-178 0 -306 97l-73 -97l-82 68l80 102q-127 154 -127 404zM334 543q0 -115 31 -189l362 465q-63 57 -147 58q-109 0 -177.5 -87.5 t-68.5 -246.5zM428 262q59 -53 152 -53q115 0 180 87t65 247q1 108 -34 184z" />
<glyph unicode="&#xf9;" horiz-adv-x="1187" d="M133 385v700h266v-671q0 -102 39 -145.5t125 -43.5q96 0 155.5 50.5t59.5 158.5v651h266v-1085h-253v104h-5q-100 -135 -282 -135q-188 0 -279.5 113t-91.5 303zM262 1475h283l166 -256h-224z" />
<glyph unicode="&#xfa;" horiz-adv-x="1187" d="M133 385v700h266v-671q0 -102 39 -145.5t125 -43.5q96 0 155.5 50.5t59.5 158.5v651h266v-1085h-253v104h-5q-100 -135 -282 -135q-188 0 -279.5 113t-91.5 303zM489 1219l166 256h283l-225 -256h-224z" />
<glyph unicode="&#xfb;" horiz-adv-x="1187" d="M133 385v700h266v-671q0 -102 39 -145.5t125 -43.5q96 0 155.5 50.5t59.5 158.5v651h266v-1085h-253v104h-5q-100 -135 -282 -135q-188 0 -279.5 113t-91.5 303zM324 1298l137 177h276l140 -177l-140 -108l-137 176l-141 -176z" />
<glyph unicode="&#xfc;" horiz-adv-x="1187" d="M133 385v700h266v-671q0 -102 39 -145.5t125 -43.5q96 0 155.5 50.5t59.5 158.5v651h266v-1085h-253v104h-5q-100 -135 -282 -135q-188 0 -279.5 113t-91.5 303zM291 1219v235h250v-235h-250zM698 1219v235h250v-235h-250z" />
<glyph unicode="&#xfd;" horiz-adv-x="1126" d="M10 1085h271l280 -735h4l281 735h270l-624 -1546h-265l217 514zM461 1219l166 256h282l-225 -256h-223z" />
<glyph unicode="&#xfe;" horiz-adv-x="1247" d="M143 -461v1956h258v-504h5q104 125 296 125q188 0 331 -157.5t143 -415.5t-142.5 -416t-331.5 -158q-104 0 -177.5 34t-110.5 81h-4v-545h-267zM410 432q0 -94 63.5 -155.5t169.5 -61.5q119 0 192.5 84t73.5 244q0 162 -73.5 244.5t-192.5 82.5q-106 0 -169.5 -61.5 t-63.5 -153.5v-223z" />
<glyph unicode="&#xff;" horiz-adv-x="1126" d="M10 1085h271l280 -735h4l281 735h270l-624 -1546h-265l217 514zM229 1219v235h250v-235h-250zM637 1219v235h250v-235h-250z" />
<glyph unicode="&#x152;" horiz-adv-x="2025" d="M82 729q0 350 179 542.5t433 192.5q102 0 186.5 -33.5t120.5 -72.5h5v76h907v-256h-631v-301h573v-246h-573v-375h631v-256h-907v76h-5q-37 -39 -121 -73t-186 -34q-262 0 -437 187.5t-175 572.5zM379 729q0 -276 88 -391t248 -115q197 0 291 129v725q-92 131 -291 131 q-154 0 -245 -117.5t-91 -361.5z" />
<glyph unicode="&#x153;" horiz-adv-x="1882" d="M72 543q0 266 147.5 419.5t360.5 153.5q238 0 374 -190q129 190 363 190q219 0 356 -151.5t137 -421.5v-80h-718q6 -125 68.5 -191.5t170.5 -66.5q100 0 170 55t103 129l196 -117q-53 -131 -174 -217t-291 -86q-242 0 -377 191q-131 -190 -378 -191q-221 0 -364.5 151.5 t-143.5 422.5zM334 543q0 -162 65.5 -248t180 -86t180 87t65.5 247q0 158 -68.5 246t-177 88t-177 -87.5t-68.5 -246.5zM1092 664h469q0 94 -67 158.5t-177 64.5q-109 0 -167 -63.5t-58 -159.5z" />
<glyph unicode="&#x178;" horiz-adv-x="1212" d="M0 1434h297l307 -588h4l307 588h297l-469 -830v-604h-274v604zM279 1567v235h249v-235h-249zM686 1567v235h250v-235h-250z" />
<glyph unicode="&#x2c6;" horiz-adv-x="634" d="M41 1298l137 177h277l139 -177l-139 -108l-138 176l-141 -176z" />
<glyph unicode="&#x2dc;" horiz-adv-x="835" d="M82 1219q35 225 207 225q68 0 157 -41q74 -39 97 -39q59 0 75 70h136q-35 -225 -207 -226q-68 0 -158 41q-74 39 -96 39q-60 1 -76 -69h-135z" />
<glyph unicode="&#x2000;" horiz-adv-x="926" />
<glyph unicode="&#x2001;" horiz-adv-x="1853" />
<glyph unicode="&#x2002;" horiz-adv-x="926" />
<glyph unicode="&#x2003;" horiz-adv-x="1853" />
<glyph unicode="&#x2004;" horiz-adv-x="617" />
<glyph unicode="&#x2005;" horiz-adv-x="463" />
<glyph unicode="&#x2006;" horiz-adv-x="308" />
<glyph unicode="&#x2007;" horiz-adv-x="308" />
<glyph unicode="&#x2008;" horiz-adv-x="231" />
<glyph unicode="&#x2009;" horiz-adv-x="370" />
<glyph unicode="&#x200a;" horiz-adv-x="102" />
<glyph unicode="&#x2010;" horiz-adv-x="837" d="M82 569v205h674v-205h-674z" />
<glyph unicode="&#x2011;" horiz-adv-x="837" d="M82 569v205h674v-205h-674z" />
<glyph unicode="&#x2012;" horiz-adv-x="837" d="M82 569v205h674v-205h-674z" />
<glyph unicode="&#x2013;" horiz-adv-x="1185" d="M82 549v225h1022v-225h-1022z" />
<glyph unicode="&#x2014;" horiz-adv-x="1984" d="M184 549v225h1616v-225h-1616z" />
<glyph unicode="&#x2018;" horiz-adv-x="632" d="M164 1176v258h305v-291h-100q0 -70 16 -96.5t84 -38.5v-140q-305 23 -305 308z" />
<glyph unicode="&#x2019;" horiz-adv-x="632" d="M164 868v140q68 12 84 38.5t16 96.5h-100v291h305v-258q0 -285 -305 -308z" />
<glyph unicode="&#x201a;" horiz-adv-x="632" d="M164 0v291h305v-258q0 -284 -305 -307v139q68 12 84 38.5t16 96.5h-100z" />
<glyph unicode="&#x201c;" horiz-adv-x="1081" d="M164 1176v258h305v-291h-100q0 -70 16 -96.5t84 -38.5v-140q-305 23 -305 308zM612 1176v258h306v-291h-101q0 -70 16.5 -96.5t84.5 -38.5v-140q-305 23 -306 308z" />
<glyph unicode="&#x201d;" horiz-adv-x="1081" d="M164 868v140q68 12 84 38.5t16 96.5h-100v291h305v-258q0 -285 -305 -308zM612 868v140q68 12 84.5 38.5t16.5 96.5h-101v291h306v-258q-1 -285 -306 -308z" />
<glyph unicode="&#x201e;" horiz-adv-x="1081" d="M164 0v291h305v-258q0 -284 -305 -307v139q68 12 84 38.5t16 96.5h-100zM612 0v291h306v-258q-1 -284 -306 -307v139q68 12 84.5 38.5t16.5 96.5h-101z" />
<glyph unicode="&#x2022;" horiz-adv-x="681" d="M92 670q0 113 68.5 183.5t179.5 70.5t180.5 -72t69.5 -182.5t-69.5 -181t-180.5 -70.5t-179.5 70.5t-68.5 181.5z" />
<glyph unicode="&#x2026;" horiz-adv-x="1857" d="M164 0v291h305v-291h-305zM776 0v291h305v-291h-305zM1389 0v291h305v-291h-305z" />
<glyph unicode="&#x202f;" horiz-adv-x="370" />
<glyph unicode="&#x2039;" horiz-adv-x="774" d="M164 575l223 381h225l-225 -381l244 -411h-225z" />
<glyph unicode="&#x203a;" horiz-adv-x="774" d="M143 164l244 411l-225 381h225l223 -381l-241 -411h-226z" />
<glyph unicode="&#x205f;" horiz-adv-x="463" />
<glyph unicode="&#x20ac;" horiz-adv-x="1538" d="M123 455v184h127q-4 66 -4 100v37h-123v185h147q55 240 222 371.5t374 131.5q221 0 376 -138t179 -372l-274 -43q-18 131 -86 214t-193 83q-100 0 -182 -64.5t-123 -182.5h348v-185h-381v-37q0 -39 5 -100h376v-184h-340q84 -229 297 -230q242 0 281 344l287 -63 q-35 -250 -182.5 -393.5t-385.5 -143.5q-219 0 -375.5 120t-216.5 366h-153z" />
<glyph unicode="&#x2122;" horiz-adv-x="1542" d="M82 1278v156h528v-156h-182v-539h-164v539h-182zM713 739v695h161l226 -478h4l223 478h164v-695h-156v383h-4l-178 -383h-102l-179 369h-4v-369h-155z" />
<glyph unicode="&#x25fc;" horiz-adv-x="1085" d="M0 0v1085h1085v-1085h-1085z" />
</font>
</defs>
</svg>
